GloDLS.to - Download Movies, TV, Games and Other Torrents Free RSS 2.0enGloDLS.to - Download Movies, TV, Games and Other Torrents FreeGloDLS.to - Download Movies, TV, Games and Other Torrents Free RSS Feedhttp://glodls.toCopyright GloDLS.to - Download Movies, TV, Games and Other Torrents FreeMon, 16 Jul 2018 13:11:01 +0100 Insane.Outdoor.Orgies.XXX.720p.WEBRip.MP4-VSEX[N1C] http://glodls.to/torrent.php?id=3528102 http://glodls.to/torrent.php?id=3528102 Mon, 16 Jul 2018 12:09:09 +0100 Adult XXX Insane.Outdoor.Orgies.XXX.720p.WEBRip.MP4-VSEX


[Format]: MPEG-4
[Duration]: 1h 22mn
[Resolution]: 1 280 x 720 pixels
[Display aspect ratio]: 16:9
[Frame rate mode]: Constant
[Frame rate]: 29.970 fps


[color=green][b]#N1C -> To avoid fakes, ALWAYS check that the torrent was added by NO1CARES[/b][/color]






[b]Screens...[/b]
[url]http://HotImage.uk/img-5b4c8ac47b50e.html[/url]
[url]http://HotImage.uk/img-5b4c8ac4867fd.html[/url]
[url]http://HotImage.uk/img-5b4c8ac48f63a.html[/url]
[url]http://HotImage.uk/img-5b4c8ac49727c.html[/url] ]]>
The Tragedy Man - Staci Layne Wilson - 2018 (Horror) [Audiobook] (miok) [WWRG] http://glodls.to/torrent.php?id=3528101 http://glodls.to/torrent.php?id=3528101 Mon, 16 Jul 2018 12:08:50 +0100 Books
[img]https://i.imgur.com/undTbLw.jpg[/img]

By: Staci Layne Wilson
Narrated by: Andy Garrison
Length: 8 hrs and 45 mins
Unabridged Audiobook
Release date: 06-13-18
Language: English
Genre: Horror
Publisher: Excessive Nuance
Format: mp3 64/22.05 mono

[b]Publisher's Summary[/b]

When his boss was murdered, Cary Bouchard’s life began.

For years, timid Cary toiled away in a cold cubicle. He had dreams, but not the courage to pursue them. That is, until he lost his job and found his fortune in a most unexpected way.

Nothing could have prepared Cary for how his life changes: Love, money, and fame come to him all too easily. Soon he’s on TV, signing autographs for legions of fans, in love with a beautiful woman, and buying a Manhattan penthouse. Cary’s newfound confidence and cachet elevates him higher and higher.

But what goes up must come down. Someone is out for blood. When unspeakable horrors and death start to befall everyone around Cary, everything slips from his grasp. His girlfriend, his fame, and finally...his sanity. All gone.

A broken man, Cary has nothing to lose as he faces complete oblivion head-on. He does everything he must do in order to uncover the truth about the murder that led to his great fortune.

But even if he does, will anyone believe him? And can he even trust himself?

©2012 Staci L. Wilson (P)2018 Staci L. Wilson

[b]Critic Reviews[/b]

"Staci Layne Wilson is an expert at creating believable characters, a chilling scenario, and a roller-coaster-ride-of-a-story that doesn't put on the brakes until the very last page." (James Newman, author of Holy Rollers and The Wicked)

"Staci Layne Wilson has one hell of a book here. It’s a spine tingling story from the very start; exciting, erotic, chilling, horrifying, gruesome...but more than anything, it’s AWESOME. This one I guarantee you will not be able to stop listening to.” (Ruby, Fallen Angels Review)[/size]

[img]https://i.imgur.com/oQ4sL63.jpg[/img]

[img]https://i.imgur.com/sHQNHOi.png[/img]

[img]https://i.imgur.com/1jVmvyI.gif[/img]

[size=6][color=purple][b]24/7 Seedbox Support[/b][/color][/size][/center] ]]>
Your Dad Stole My Rake And Other Family Dilemmas - Tom Papa - 2018 (Humor) [Audiobook] (miok) [WWRG] http://glodls.to/torrent.php?id=3528100 http://glodls.to/torrent.php?id=3528100 Mon, 16 Jul 2018 12:07:06 +0100 Books And Other Family Dilemmas[/b]

[img]https://i.imgur.com/ZvTQBZA.jpg[/img]

By: Tom Papa
Narrated by: Tom Papa
Length: 6 hrs and 28 mins
Unabridged Audiobook
Release date: 06-05-18
Language: English
Genre: Comedy, Storytelling
Publisher: Macmillan Audio
Format: mp3 64/22.05 mono

[b]Publisher's Summary[/b]

This program is read by the author.

It’s hard being a person, especially in a family, and no one knows that better than stand-up comedian, family man, and Live from Here head writer and performer, Tom Papa.

How do you deal with a life filled with a whole host of characters and their bizarre, inescapable behavior? Especially when you’re related to them? Tom Papa is here to help you make sense of it all. Your Dad Stole My Rake is a hilarious and warm audiobook that saws deep into every branch of the family tree and uncovers the most bizarre and surprisingly meaningful aspects of our lives. He exposes everyone, from crazy aunts with mustaches, grandparents who communicate by yelling, and uncles who use marijuana as a condiment.

[b]Among the topics covered: [/b]

• Tiger Mom v. Ice-Cream Mom
• Stop Trying to Be Cool
• In Defense of Family Vacations
• No Fighting Before Coffee
• Least Popular Baby Names
• Wife Lie Detector
• Your Cat Thinks You’re Too Needy

Anyone who has a family, grew up in a family, or has spent time with another human being will love this audiobook.

©2018 Tom Papa (P)2018 Macmillan Audio

[b]Critic Reviews[/b]

"I have been a close friend of Tom Papa for 17 years. His lack of ability to perceive even the most basic principles of human functioning have made him an invaluable asset to me as a friend and colleague.... I would definitely recommend whatever the name of this book is, because I know it comes from a place of pure nonsense without any knowledge of anything. He is really one of my favorite people." (Jerry Seinfeld, comedian and author of SeinLanguage)

"Finally a funny book about parenting. Great observations. Great writing. Actually funny. I've always known Tom was hysterical, now I know he is a great writer and a fantastic storyteller. Can Tom Papa write all books?" (Jim Gaffigan, comedian and author of Dad Is Fat)[/size]

[img]https://i.imgur.com/zpxx56q.jpg[/img]

[img]https://i.imgur.com/sHQNHOi.png[/img]

[img]https://i.imgur.com/1jVmvyI.gif[/img]

[size=6][color=purple][b]24/7 Seedbox Support[/b][/color][/size][/center] ]]>
Kiki Daire - Stepmoms Pussy Buffet http://glodls.to/torrent.php?id=3528099 http://glodls.to/torrent.php?id=3528099 Mon, 16 Jul 2018 12:06:20 +0100 Adult XXX
[b]Date[/b]: 2018
[b]Cast[/b]: Kiki Daire
[b]Genre[/b]: All Sex
[b]Name[/b]: Stepmoms Pussy Buffet


[b]Video[/b]: 960x540, 29.970 FPS, 2700 kb/s
[b]Audio[/b]: 48.0 kHz, 2 channels, 132 kb/s
[b]Format[/b]: mp4
[b]Duration[/b]: 00:26:55
]]>
Australian Ninja Warrior S02E05 720p WEBRIP x264-CRR http://glodls.to/torrent.php?id=3528098 http://glodls.to/torrent.php?id=3528098 Mon, 16 Jul 2018 12:04:42 +0100 TV
[img]https://i.imgur.com/iKWjY61.png[/img]
Australian Ninja Warrior Season 2 is a sports entertainment competition spin-off of the Japanese television series Sasuke which will air on 8th July 2018 on the Nine Network. The series is hosted by Rebecca Maddern,Ben Fordham & Freddie Flintoff.


[url=https://en.wikipedia.org/wiki/Australian_Ninja_Warrior]https://en.wikipedia.org/wiki/Australian_Ninja_Warrior[/url]


[img]https://i.imgur.com/JlDGtrk.png[/img]
[url=https://extraimage.net/image/sJaL][img]https://extraimage.net/images/2018/07/16/9d1c6d2eb95465742893f9bda041611a.jpg[/img][/url]



[b]AS ALWAYS.........[/b]
[img]https://extraimage.net/images/2017/08/04/71e40073af5dc778b5620d8d6fc02d70.jpg[/img] ]]>
Running Wild With Bear Grylls S04E08 Uzo Aduba WEB x264-TBS http://glodls.to/torrent.php?id=3528056 http://glodls.to/torrent.php?id=3528056 Mon, 16 Jul 2018 12:00:25 +0100 TV http://www.tvrage.com/schedule.php?show_yesterday=1. ]]> Robot Chicken S09E18 No Wait He Has A Cane 720p AMZN WEBRip DDP5 1 H 264-NTb http://glodls.to/torrent.php?id=3528055 http://glodls.to/torrent.php?id=3528055 Mon, 16 Jul 2018 12:00:23 +0100 TV http://www.tvrage.com/schedule.php?show_yesterday=1. ]]> Karenjit Kaur (2018) 720p Hindi HDRip (All Episodes) (01-10) x264 AAC by Full4movies http://glodls.to/torrent.php?id=3528054 http://glodls.to/torrent.php?id=3528054 Mon, 16 Jul 2018 12:00:22 +0100 Movies
General
Complete name : Karenjit Kaur (2018) 720p Hindi HDRip (All Episodes) (01-10) x264 AAC by Full4movies.mkv
Format : Matroska
Format version : Version 4 / Version 2
File size : 1.61 GiB
Duration : 3 h 25 min
Overall bit rate : 1 118 kb/s
Movie name : www.Full4movies.co
Encoded date : UTC 2018-07-16 07:15:00
Writing application : mkvmerge v8.1.0 ('Psychedelic Postcard') 32bit
Writing library : libebml v1.3.1 + libmatroska v1.4.2

Video
ID : 1
Format : AVC
Format/Info : Advanced Video Codec
Format profile : Main@L3.1
Format settings, CABAC : Yes
Format settings, RefFrames : 4 frames
Codec ID : V_MPEG4/ISO/AVC
Duration : 3 h 25 min
Bit rate : 1 051 kb/s
Width : 1 280 pixels
Height : 544 pixels
Display aspect ratio : 2.35:1
Frame rate mode : Constant
Frame rate : 29.970 (29970/1000) FPS
Original frame rate : 29.970 (30000/1001) FPS
Color space : YUV
Chroma subsampling : 4:2:0
Bit depth : 8 bits
Scan type : Progressive
Bits/(Pixel*Frame) : 0.050
Stream size : 1.51 GiB (94%)
Writing library : x264 core 112
Language : English
Default : Yes
Forced : No
Color range : Limited
Color primaries : BT.709
Transfer characteristics : BT.709
Matrix coefficients : BT.709

Audio
ID : 2
Format : AAC
Format/Info : Advanced Audio Codec
Format profile : LC
Codec ID : A_AAC
Duration : 3 h 25 min
Bit rate : 64.2 kb/s
Channel(s) : 2 channels
Channel positions : Front: L R
Sampling rate : 48.0 kHz
Frame rate : 46.875 FPS (1024 SPF)
Compression mode : Lossy
Stream size : 94.4 MiB (6%)
Language : Hindi
Default : Yes
Forced : No

[b]Screen Shoots[/b]
[img]https://extraimage.net/images/2018/07/16/87b29c1cae1eedbcb0334858a9255d26.jpg[/img] ]]>
Celebrity Family Feud 2015 S04E05 WEB x264-TBS http://glodls.to/torrent.php?id=3528053 http://glodls.to/torrent.php?id=3528053 Mon, 16 Jul 2018 12:00:20 +0100 TV http://www.tvrage.com/schedule.php?show_yesterday=1. ]]> Bug Juice My Adventures at Camp S01E01 WEB x264-TBS http://glodls.to/torrent.php?id=3528052 http://glodls.to/torrent.php?id=3528052 Mon, 16 Jul 2018 12:00:19 +0100 TV http://www.tvrage.com/schedule.php?show_yesterday=1. ]]> Marvels Spider-Man S02E06 WEB x264-TBS http://glodls.to/torrent.php?id=3528051 http://glodls.to/torrent.php?id=3528051 Mon, 16 Jul 2018 12:00:16 +0100 TV http://www.tvrage.com/schedule.php?show_yesterday=1. ]]> The Real Housewives of Potomac S03E15 WEB x264-TBS http://glodls.to/torrent.php?id=3528050 http://glodls.to/torrent.php?id=3528050 Mon, 16 Jul 2018 12:00:13 +0100 TV http://www.tvrage.com/schedule.php?show_yesterday=1. ]]> Watch What Happens Live 2018 07 15 Ashley Darby and D L Hughley WEB x264-TBS http://glodls.to/torrent.php?id=3528049 http://glodls.to/torrent.php?id=3528049 Mon, 16 Jul 2018 12:00:11 +0100 TV http://www.tvrage.com/schedule.php?show_yesterday=1. ]]> MasterChef Australia S10E51 HDTV x264-SPC http://glodls.to/torrent.php?id=3528048 http://glodls.to/torrent.php?id=3528048 Mon, 16 Jul 2018 12:00:09 +0100 TV http://www.tvrage.com/schedule.php?show_yesterday=1. ]]> The Affair S04E05 REPACK WEB H264-DEFLATE http://glodls.to/torrent.php?id=3528047 http://glodls.to/torrent.php?id=3528047 Mon, 16 Jul 2018 12:00:07 +0100 TV http://www.tvrage.com/schedule.php?show_yesterday=1. ]]> Avengers.Grimm.2.Time.Wars.2018.720p.BluRay.x264-GETiT[EtHD] http://glodls.to/torrent.php?id=3528046 http://glodls.to/torrent.php?id=3528046 Mon, 16 Jul 2018 11:57:51 +0100 Movies EtHD - Et High-Definition

-----------------------------------------------------
[url]https://www.ettv.tv[/url]

Avengers.Grimm.2.Time.Wars.2018.720p.BluRay.x264-GETiT

http://www.imdb.com/title/tt8159584/

[Video Bitrate]:.............: 7152 kbps
[Duration]:.............: 1h 27mn
[Video Codec]:.............: AVC
[Resolution]:.............: 1280x720 px
[Aspect Ratio]:.............: 16:9
[Audio Codec]:.............: DTS
[Audio Bitrate]:.............: 1509 kbps
[Audio Channels]:.............: 5.1ch
[Audio Language]:.............: English

Genre .......................:

[color=green][b]#EtHD -> To avoid fakes, ALWAYS check that the torrent was added by EtHD [/b][/color]


[color=green][b]To keep us going Support us by donating Bitcoin: 3PaWcF82GoygLH9z4d7AocH6zcF6m15Wdv[/b][/color]

[b]Screens...[/b]

[url]https://extraimage.net/image/sJ2M[/url]
[url]https://extraimage.net/image/sJ2U[/url]
[url]https://extraimage.net/image/sJ2z[/url]
[url]https://extraimage.net/image/sJ20[/url]
[url]https://extraimage.net/image/sJ2J[/url]
[url]https://extraimage.net/image/sJ2B[/url]
]]>
Signed Sealed Delivered (To the Altar) 720p HDTV X264 Solar http://glodls.to/torrent.php?id=3528045 http://glodls.to/torrent.php?id=3528045 Mon, 16 Jul 2018 11:56:40 +0100 Movies [img]https://extraimage.net/images/2018/07/16/cd3024c4846ff90803eb8462c4444dd7.jpg[/img]
[img]https://extraimage.net/images/2018/07/16/5d592ed1e6bb485f30e3ab6b4ae3cfa6.jpg[/img][url=https://extraimage.net/image/sJ2N][img]https://extraimage.net/images/2018/07/16/48ad52d4afb3e57bb28530a49df27f4b.md.jpg[/img][/url]
[url=https://extraimage.net/image/sJ22][img]https://extraimage.net/images/2018/07/16/f2992e1c57e214e92938460322546412.md.jpg[/img][/url]

[url=https://www.imdb.com/title/tt8497680/]https://www.imdb.com/title/tt8497680/[/url]
[size=3][b]Summary:[/b]_The long-awaited wedding of Norman and Rita leads the postal detectives to a letter with clues about a young woman's missing mother.  [/size]

Original Air Date:  July 15, 2018

Format : MPEG-4 | AVC | Main L4
File size : 846 MiB
Duration : 1 h 24 min
Bit rate: : 1 635 kb/s

Video
Width : 1 280 pixels
Height : 720 pixels
aspect ratio : 16:9

Audio
Format : AAC | 96 Kbps | 2 channel | English



]]>
Avengers.Grimm.2.Time.Wars.2018.1080p.BluRay.x264-GETiT[EtHD] http://glodls.to/torrent.php?id=3528043 http://glodls.to/torrent.php?id=3528043 Mon, 16 Jul 2018 11:56:01 +0100 Movies EtHD - EtHD - Et High-Definition Movies

-----------------------------------------------------
[url]https://ettv.online/[/url]

Avengers.Grimm.2.Time.Wars.2018.1080p.BluRay.x264-GETiT

http://www.imdb.com/title/tt8159584/

[Video Bitrate]:.............: 10.7mb/s
[Duration]:.............: 1 h 27 min
[Video Codec]:.............: AVC
[Resolution]:.............: 1920x1080 px
[Aspect Ratio]:.............: 16:9
[Audio Codec]:.............: DTS
[Audio Bitrate]:.............: 1509kb/s
[Audio Channels]:.............: 5.1ch
[Audio Language]:.............: English

Genre .......................:

[color=green][b]#EtHD -> To avoid fakes, ALWAYS check that the torrent was added by EtHD [/b][/color]


[color=green][b]To keep us going Support us by donating Bitcoin: 3PaWcF82GoygLH9z4d7AocH6zcF6m15Wdv[/b][/color]

[b]Screens...[/b]

[url]https://extraimage.net/image/sJ2O[/url]
[url]https://extraimage.net/image/sJ2S[/url]
[url]https://extraimage.net/image/sJ2q[/url]
[url]https://extraimage.net/image/sJ2y[/url]
[url]https://extraimage.net/image/sJ2L[/url]
[url]https://extraimage.net/image/sJ2I[/url]
]]>
Hotel Transylvania 3 Summer Vacation (2018) 720p English HDCAM x264 AAC by Full4movies http://glodls.to/torrent.php?id=3528042 http://glodls.to/torrent.php?id=3528042 Mon, 16 Jul 2018 11:53:23 +0100 Movies
General
Complete name : Hotel Transylvania 3 Summer Vacation (2018) 720p English HDCAM x264 AAC by Full4movies.mkv
Format : Matroska
Format version : Version 4 / Version 2
File size : 742 MiB
Duration : 1 h 27 min
Overall bit rate : 1 185 kb/s
Movie name : www.Full4movies.co
Encoded date : UTC 2018-07-16 07:14:20
Writing application : mkvmerge v8.1.0 ('Psychedelic Postcard') 32bit
Writing library : libebml v1.3.1 + libmatroska v1.4.2

Video
ID : 1
Format : AVC
Format/Info : Advanced Video Codec
Format profile : High@L3.1
Format settings, CABAC : Yes
Format settings, RefFrames : 4 frames
Codec ID : V_MPEG4/ISO/AVC
Duration : 1 h 27 min
Bit rate : 1 083 kb/s
Width : 1 072 pixels
Height : 544 pixels
Display aspect ratio : 1.971
Frame rate mode : Variable
Frame rate : 30.000 FPS
Color space : YUV
Chroma subsampling : 4:2:0
Bit depth : 8 bits
Scan type : Progressive
Bits/(Pixel*Frame) : 0.062
Stream size : 678 MiB (91%)
Language : English
Default : Yes
Forced : No

Audio
ID : 2
Format : AAC
Format/Info : Advanced Audio Codec
Format profile : LC
Codec ID : A_AAC
Duration : 1 h 27 min
Bit rate : 98.3 kb/s
Channel(s) : 2 channels
Channel positions : Front: L R
Sampling rate : 44.1 kHz
Frame rate : 43.066 FPS (1024 SPF)
Compression mode : Lossy
Delay relative to video : -23 ms
Stream size : 61.5 MiB (8%)
Language : English
Default : Yes
Forced : No

[img]https://extraimage.net/images/2018/07/16/703c51b911a3ea80d42fa42b792eca71.jpg[/img] ]]>
Christie Stevens - Stepmoms Sexual Sleepover http://glodls.to/torrent.php?id=3528041 http://glodls.to/torrent.php?id=3528041 Mon, 16 Jul 2018 11:52:19 +0100 Adult XXX
[b]Date[/b]: 2018
[b]Cast[/b]: Christie Stevens
[b]Genre[/b]: All Sex
[b]Name[/b]: Stepmoms Sexual Sleepover


[b]Video[/b]: 960x540, 29.970 FPS, 2700 kb/s
[b]Audio[/b]: 48.0 kHz, 2 channels, 132 kb/s
[b]Format[/b]: mp4
[b]Duration[/b]: 00:33:24
]]>
Seduced By A Cougar 50[Naughty America]**Split Scenes** http://glodls.to/torrent.php?id=3528040 http://glodls.to/torrent.php?id=3528040 Mon, 16 Jul 2018 11:51:54 +0100 Adult XXX [center][URL=http://imagedecode.com/img-5b4c7cdc282a9.html][IMG]http://imagedecode.com/upload/small/2018/07/16/5b4c7cdc28285.jpg[/IMG][/URL]
[size=4]

Stars: Julia Ann, India Summer, Cherie DeVille, Janet Mason, Diamond Jackson, Jessica Jaymes
Category: All Sex, Big Boobs, Cougars, Mature
File size: 3.32 GB
Duration: 02:53:36

[b]SCREENS:[/b]

[url]http://hdmoza.com//img-5b4c7d3d695ed.html[/url]
[url]https://www.iceimg.net/site/v/6823768#2405&6823768[/url]
[url]http://imageteam.org/img-5b4c7d6794c07.html[/url]
[url]http://damimage.com/img-5b4c7d7b09b21.html[/url]
[url]http://imagedecode.com/img-5b4c7d8fd6e64.html[/url]

[/size]
[/center] ]]>
Avengers.Grimm.2.Time.Wars.2018.BDRip.x264-GETiT[EtMovies] http://glodls.to/torrent.php?id=3528039 http://glodls.to/torrent.php?id=3528039 Mon, 16 Jul 2018 11:50:03 +0100 Movies EtMovies - Et High-Definition

-----------------------------------------------------

Avengers.Grimm.2.Time.Wars.2018.BDRip.x264-GETiT

http://www.imdb.com/title/tt8159584/

[Video Bitrate]:.............: 1105kb/s
[Duration]:.............: 1 h 27 min
[Video Codec]:.............: AVC
[Resolution]:.............: 720x404 px
[Aspect Ratio]:.............: 16:9
[Audio Codec]:.............: AAC
[Audio Bitrate]:.............: 127kb/s
[Audio Channels]:.............: 2.0ch
[Audio Language]:.............: English

Genre .......................:

[color=green][b]#EtMovies -> To avoid fakes, ALWAYS check that the torrent was added by EtMovies [/b][/color]


[url]https://www.ettv.tv[/url]

[color=green][b]To keep us going Support us by donating Bitcoin: 3PaWcF82GoygLH9z4d7AocH6zcF6m15Wdv[/b][/color]

[b]Screens...[/b]

[url]https://extraimage.net/image/sJwo[/url]
[url]https://extraimage.net/image/sJwt[/url]
[url]https://extraimage.net/image/sJwx[/url]
[url]https://extraimage.net/image/sJw6[/url]
[url]https://extraimage.net/image/sJwV[/url]
[url]https://extraimage.net/image/sJwf[/url]
]]>
Harmony Wonders Ready To Play On Her Pussy mp4 http://glodls.to/torrent.php?id=3528038 http://glodls.to/torrent.php?id=3528038 Mon, 16 Jul 2018 11:49:01 +0100 Adult XXX
Screen:

[url=http://blobopics.biz/share-E9DD_5B4C7E82.html][img]http://blobopics.biz/thumb-E9DD_5B4C7E82.jpg[/img][/url]

or:

[url=http://blobopics.biz/share-3444_5B4C7E82.html][img]http://blobopics.biz/thumb-3444_5B4C7E82.jpg[/img][/url]

Screenshot:

[url=http://blobopics.biz/share-39D4_5B4C7E82.html][img]http://blobopics.biz/thumb-39D4_5B4C7E82.jpg[/img][/url]

File Size: 1,29 GB | Resolution: 1920x1080 | Duration: 00:36:05 | Format: mp4
]]>
Alina Lopez - Masturbating Outdoors http://glodls.to/torrent.php?id=3528037 http://glodls.to/torrent.php?id=3528037 Mon, 16 Jul 2018 11:48:24 +0100 Adult XXX
[b]Date[/b]: 2018
[b]Cast[/b]: Alina Lopez
[b]Genre[/b]: Masturbating, solo
[b]Name[/b]: Masturbating Outdoors


[b]Video[/b]: 1920x1080, AVC (H.264), 10000 kbps
[b]Audio[/b]: AAC LC, 44.1 KHz, 2 channels, 207 Kbps
[b]Format[/b]: mp4
[b]Duration[/b]: 00:10:13
]]>
Lets.Kill.Grandpa.2017.HDRip.XviD.AC3-EVO[EtMovies] http://glodls.to/torrent.php?id=3528036 http://glodls.to/torrent.php?id=3528036 Mon, 16 Jul 2018 11:46:02 +0100 Movies EtMovies - Et High-Definition

-----------------------------------------------------

Lets.Kill.Grandpa.2017.HDRip.XviD.AC3-EVO

http://www.imdb.com/title//

[Video Bitrate]:.............: 2060kb/s
[Duration]:.............: 1 h 19 min
[Video Codec]:.............: AVC
[Resolution]:.............: 720x400 px
[Aspect Ratio]:.............: 16:9
[Audio Codec]:.............: AC-3
[Audio Bitrate]:.............: 192kb/s
[Audio Channels]:.............: 2.0ch
[Audio Language]:.............: English

Genre .......................:

[color=green][b]#EtMovies -> To avoid fakes, ALWAYS check that the torrent was added by EtMovies [/b][/color]


[url]https://www.ettv.tv[/url]

[color=green][b]To keep us going Support us by donating Bitcoin: 3PaWcF82GoygLH9z4d7AocH6zcF6m15Wdv[/b][/color]

[b]Screens...[/b]

[url]https://extraimage.net/image/sJwY[/url]
[url]https://extraimage.net/image/sJwp[/url]
[url]https://extraimage.net/image/sJwr[/url]
[url]https://extraimage.net/image/sJwG[/url]
[url]https://extraimage.net/image/sJwP[/url]
[url]https://extraimage.net/image/sJwF[/url]
]]>
A Better Tomorrow 4 (2018) 720p HDRip x264 AAC ESub by Full4movies http://glodls.to/torrent.php?id=3528034 http://glodls.to/torrent.php?id=3528034 Mon, 16 Jul 2018 11:45:13 +0100 Movies
General
Complete name : A Better Tomorrow 4 (2018) 720p HDRip x264 AAC ESub by Full4movies.mkv
Format : Matroska
Format version : Version 4 / Version 2
File size : 931 MiB
Duration : 1 h 53 min
Overall bit rate : 1 143 kb/s
Movie name : www.Full4movies.co
Encoded date : UTC 2018-07-16 07:12:34
Writing application : mkvmerge v8.1.0 ('Psychedelic Postcard') 32bit
Writing library : libebml v1.3.1 + libmatroska v1.4.2

Video
ID : 1
Format : AVC
Format/Info : Advanced Video Codec
Format profile : Main@L4
Format settings, CABAC : Yes
Format settings, RefFrames : 4 frames
Codec ID : V_MPEG4/ISO/AVC
Duration : 1 h 53 min
Bit rate : 1 077 kb/s
Width : 1 280 pixels
Height : 536 pixels
Display aspect ratio : 2.40:1
Frame rate mode : Variable
Frame rate : 24.000 FPS
Color space : YUV
Chroma subsampling : 4:2:0
Bit depth : 8 bits
Scan type : Progressive
Bits/(Pixel*Frame) : 0.065
Stream size : 876 MiB (94%)
Writing library : x264 core 155 r2901 7d0ff22
Default : Yes
Forced : No
Color range : Limited
Color primaries : BT.709
Transfer characteristics : BT.709
Matrix coefficients : BT.709

Audio
ID : 2
Format : AAC
Format/Info : Advanced Audio Codec
Format profile : LC
Codec ID : A_AAC
Duration : 1 h 53 min
Bit rate : 64.1 kb/s
Channel(s) : 2 channels
Channel positions : Front: L R
Sampling rate : 48.0 kHz
Frame rate : 46.875 FPS (1024 SPF)
Compression mode : Lossy
Delay relative to video : -21 ms
Stream size : 52.2 MiB (6%)
Language : Chinese
Default : Yes
Forced : No

Text
ID : 3
Format : UTF-8
Codec ID : S_TEXT/UTF8
Codec ID/Info : UTF-8 Plain Text
Duration : 1 h 50 min
Bit rate : 41 b/s
Count of elements : 1436
Stream size : 33.3 KiB (0%)
Language : English
Default : Yes
Forced : No

[b]Screen Shoots[/b]
[img]https://extraimage.net/images/2018/07/16/a7fcbc4922bdb2c88649b7d47cda9a27.jpg[/img] ]]>
Lets.Kill.Grandpa.2017.HDRip.XviD.AC3-EVO[TGx] http://glodls.to/torrent.php?id=3528032 http://glodls.to/torrent.php?id=3528032 Mon, 16 Jul 2018 11:44:17 +0100 Movies [b]Lets.Kill.Grandpa.2017.HDRip.XviD.AC3-EVO[TGx][/b]

Upload provided by TorrentGalaxy
Visit us @ [url]https://torrentgalaxy.org[/url]

[b]MEDIAINFO[/b]
Container = Matroska (avi)
Duration = 01:19:59.406
Filesize = 1 GiB
ViDEO
Codec info = AVC High@L4.1 | V_MPEG4/ISO/AVC
Resolution = 720x400
Display AR = 1.800 | 16:9
Bitrate = 1 900 kb/s
Framerate = CFR 23.976
Color space = YUV
Chroma subsampling = 4:2:0
Encoder = x264 - core 142 r2479 dd79a61
AUDiO
Codec info = AC-3 | A_AC3
Channels = 2
Bitrate = CBR 192 kb/s
Samplerate = 48.0 kHz
Language = English

[b]SCREENSHOTS[/b]
(Click to enlarge)
[url=https://imgmak.com/image/DJ5][img]https://imgmak.com/images/2018/07/16/HappyRoboto20397.th.jpg[/img][/url] [url=https://imgmak.com/image/DJ1][img]https://imgmak.com/images/2018/07/16/HappyRoboto28833.th.jpg[/img][/url] [url=https://imgmak.com/image/DJU][img]https://imgmak.com/images/2018/07/16/HappyRoboto15748.th.jpg[/img][/url] [url=https://imgmak.com/image/DJ3][img]https://imgmak.com/images/2018/07/16/HappyRoboto11561.th.jpg[/img][/url] [url=https://imgmak.com/image/DJG][img]https://imgmak.com/images/2018/07/16/HappyRoboto24434.th.jpg[/img][/url] [url=https://imgmak.com/image/DJH][img]https://imgmak.com/images/2018/07/16/HappyRoboto10979.th.jpg[/img][/url]
[/center] ]]>
Spanking.The.Monkey.4.XXX.1080p.WEBRip.MP4-VSEX[N1C] http://glodls.to/torrent.php?id=3528028 http://glodls.to/torrent.php?id=3528028 Mon, 16 Jul 2018 11:41:12 +0100 Adult XXX Spanking.The.Monkey.4.XXX.1080p.WEBRip.MP4-VSEX


[Format]: MPEG-4
[Duration]: 1h 11mn
[Resolution]: 1 920 x 1 080 pixels
[Display aspect ratio]: 16:9
[Frame rate mode]: Constant
[Frame rate]: 23.976 fps


[color=green][b]#N1C -> To avoid fakes, ALWAYS check that the torrent was added by NO1CARES[/b][/color]






[b]Screens...[/b]
[url]http://HotImage.uk/img-5b4c843520ece.html[/url]
[url]http://HotImage.uk/img-5b4c84352c409.html[/url]
[url]http://HotImage.uk/img-5b4c843536f39.html[/url]
[url]http://HotImage.uk/img-5b4c843541779.html[/url] ]]>
Adriana Sephora, Abigail Mac - Two horny women touch each other and enjoy together http://glodls.to/torrent.php?id=3528027 http://glodls.to/torrent.php?id=3528027 Mon, 16 Jul 2018 11:40:09 +0100 Adult XXX
[b]Date[/b]: 2018
[b]Cast[/b]: Adriana Sephora, Abigail Mac
[b]Genre[/b]: Lesbian, Oral
[b]Name[/b]: Two horny women touch each other and enjoy together


[b]Video[/b]: AVC, 720x406, 30.000 FPS, 1500 kb/s
[b]Audio[/b]: AAC LC, 48.0 kHz, 2 channels, 118 kb/s
[b]Format[/b]: mp4
[b]Duration[/b]: 00:27:44
]]>
[LegalPorno]Alice Alcantara - Young Brazilian Slut Alice Alcantara DPed By Two Monster Cocks SZ2018 http://glodls.to/torrent.php?id=3528025 http://glodls.to/torrent.php?id=3528025 Mon, 16 Jul 2018 11:33:51 +0100 Adult XXX [center][URL=https://imgadult.com/img-5b4c7ec451a98.html][IMG]https://imgadult.com/upload/small-medium/2018/07/16/5b4c7ec451a60.jpg[/IMG][/URL]
[size=4]

Alice Alcantara - Young Brazilian Slut Alice Alcantara DPed By Two Monster Cocks SZ2018
Category: Teen, Anal, Group, Double Penetration, All Sex, Amateur, Hardcore, Facial, Students, Threesome, Blowjob, Cumshots, Slender, Shaved, Blonde, Natural Tits
File size: 881 MB
Duration: 00:46:15

[b]SCREENS:[/b]

[url]https://imgadult.com/img-5b4c7ed23ee34.html[/url]
[url]https://imgdrive.net/img-5b4c7f5606f69.html[/url]

[b]SHOOT:[/b]
[url]https://www.iceimg.net/site/v/6823843#2405&6823843[/url]

[/size]
[/center] ]]>
[ArenaBG com]-Private Gold 181 Oktober Sexfest 2 (Bill Powers, Private) [2014 г , Anal, Group Sex, Hardcore, DP, Feature, WEB-DL, 540p] (Split Scenes) http://glodls.to/torrent.php?id=3528023 http://glodls.to/torrent.php?id=3528023 Mon, 16 Jul 2018 11:32:02 +0100 Adult XXX Latina Luna Star Gets Fucked By Big Black Cock mp4 http://glodls.to/torrent.php?id=3528022 http://glodls.to/torrent.php?id=3528022 Mon, 16 Jul 2018 11:30:30 +0100 Adult XXX
Screen:

[url=http://blobopics.biz/share-70F9_5B4C74AF.html][img]http://blobopics.biz/thumb-70F9_5B4C74AF.jpg[/img][/url]

or:

[url=http://blobopics.biz/share-9267_5B4C74AF.html][img]http://blobopics.biz/thumb-9267_5B4C74AF.jpg[/img][/url]

Screenshot:

[url=http://blobopics.biz/share-97F4_5B4C74AF.html][img]http://blobopics.biz/thumb-97F4_5B4C74AF.jpg[/img][/url]

File Size: 1,70 GB | Resolution: 1920x1080 | Duration: 00:29:45 | Format: mp4
]]>
Silvia Saige - A Cougar In Sheeps Clothing http://glodls.to/torrent.php?id=3528019 http://glodls.to/torrent.php?id=3528019 Mon, 16 Jul 2018 11:28:11 +0100 Adult XXX
[b]Date[/b]: 2018
[b]Cast[/b]: Silvia Saige
[b]Genre[/b]: All Sex
[b]Name[/b]: A Cougar In Sheeps Clothing


[b]Video[/b]: 960x540, 29.970 FPS, 2700 kb/s
[b]Audio[/b]: 48.0 kHz, 2 channels, 132 kb/s
[b]Format[/b]: mp4
[b]Duration[/b]: 00:13:07
]]>
Spanking.The.Monkey.4.XXX.720p.WEBRip.MP4-VSEX[N1C] http://glodls.to/torrent.php?id=3528015 http://glodls.to/torrent.php?id=3528015 Mon, 16 Jul 2018 11:25:15 +0100 Adult XXX Spanking.The.Monkey.4.XXX.720p.WEBRip.MP4-VSEX


[Format]: MPEG-4
[Duration]: 1h 11mn
[Resolution]: 1 280 x 720 pixels
[Display aspect ratio]: 16:9
[Frame rate mode]: Constant
[Frame rate]: 23.976 fps


[color=green][b]#N1C -> To avoid fakes, ALWAYS check that the torrent was added by NO1CARES[/b][/color]






[b]Screens...[/b]
[url]http://HotImage.uk/img-5b4c805821096.html[/url]
[url]http://HotImage.uk/img-5b4c80582cf69.html[/url]
[url]http://HotImage.uk/img-5b4c805835fae.html[/url]
[url]http://HotImage.uk/img-5b4c80583de7e.html[/url] ]]>
Ania Kinski - swallows four loads after balls deep anal fucking DP SZ1524 http://glodls.to/torrent.php?id=3528014 http://glodls.to/torrent.php?id=3528014 Mon, 16 Jul 2018 11:24:48 +0100 Adult XXX
[b]Genre[/b]: airtight, anal, bbc, brunette, deep throat, double penetration (DP), facial cumshot, gapes (gaping asshole), interracial
[b]Name[/b]: Ania Kinski swallows four loads after balls deep anal fucking & DP SZ1524


[b]Video[/b]: AVC, 848x480, 29.970 FPS, 2500 kb/s
[b]Audio[/b]: AAC LC, 44.1 kHz, 2 channels, 162 kb/s
[b]Format[/b]: mp4
[b]Duration[/b]: 00:47:15
]]>
WickedPictures Making Ends Meet 480p MP4-XxX http://glodls.to/torrent.php?id=3528013 http://glodls.to/torrent.php?id=3528013 Mon, 16 Jul 2018 11:23:23 +0100 Adult XXX
[b]Screens:[/b]

[url]https://22pixx.xyz/ia-i/5b4c802d5a4ab.jpeg.html[/url]

[url]https://22pixx.xyz/ia-i/5b4c802d4f2e7.jpeg.html[/url]

[url]https://22pixx.xyz/ia-i/5b4c802d441aa.jpeg.html[/url]

[url]https://22pixx.xyz/ia-i/5b4c802ba70d4.jpeg.html[/url]

File Size : 1.06 GiB
File Duration : 2h 12mn
Video Metainfo : H264, yuv420p, 854x480p, 1024 Kbps
Audio Metainfo : AAC , 2 ch, Stereo , 128 Kbps ]]>
The Honey Killer 2018 1080p WEB-DL DD 2 0 x264 [MW] http://glodls.to/torrent.php?id=3528012 http://glodls.to/torrent.php?id=3528012 Mon, 16 Jul 2018 11:22:33 +0100 Movies [url=https://pichub.site/image/aKl1D][img]https://pichub.site/images/2018/07/16/h.md.jpg[/img][/url]
[b]
General
Format : Matroska
Format version : Version 4 / Version 2
File size : 1.35 GiB
Duration : 1 h 20 min
Overall bit rate : 2 406 kb/s

Video
ID : 1
Format : AVC
Format/Info : Advanced Video Codec
Format profile : High@L4.1
Format settings : CABAC / 4 Ref Frames
Format settings, CABAC : Yes
Format settings, RefFrames : 4 frames
Codec ID : V_MPEG4/ISO/AVC
Duration : 1 h 20 min
Bit rate : 2 200 kb/s
Width : 1 916 pixels
Height : 798 pixels
Display aspect ratio : 2.40:1
Frame rate mode : Constant
Frame rate : 25.000 FPS
Color space : YUV
Chroma subsampling : 4:2:0
Bit depth : 8 bits
Scan type : Progressive
Bits/(Pixel*Frame) : 0.058
Stream size : 1.22 GiB (91%)
Writing library : x264 core 155 r2901 7d0ff22
Default : Yes
Forced : No

Audio
ID : 2
Format : E-AC-3
Format/Info : Enhanced Audio Coding 3
Codec ID : A_EAC3
Duration : 1 h 20 min
Bit rate mode : Constant
Bit rate : 224 kb/s
Channel(s) : 2 channels
Channel positions : Front: L R
Sampling rate : 48.0 kHz
Frame rate : 187.500 FPS (256 SPF)
Compression mode : Lossy
Stream size : 128 MiB (9%)
Language : English
Service kind : Complete Main
Default : Yes
Forced : No

Text
ID : 3
Format : UTF-8
Codec ID : S_TEXT/UTF8
Codec ID/Info : UTF-8 Plain Text
Duration : 1 h 20 min
Bit rate : 50 b/s
Count of elements : 1142
Stream size : 29.7 KiB (0%)
Title : SDH
Language : English
Default : No
Forced : No
[/b]

Click To Enlarge Image

[url=https://pichub.site/image/aKPOZ][img]https://pichub.site/images/2018/07/16/18690df56c11d45f0.md.png[/img][/url]
[url=https://pichub.site/image/aKXBg][img]https://pichub.site/images/2018/07/16/2782a8a1713891c36.md.png[/img][/url]
[url=https://pichub.site/image/aKnPI][img]https://pichub.site/images/2018/07/16/3783579b292eeb4f9.md.png[/img][/url]
[url=https://pichub.site/image/aK3fX][img]https://pichub.site/images/2018/07/16/4af140c34a6fb4429.md.png[/img][/url]
[url=https://pichub.site/image/aKZh8][img]https://pichub.site/images/2018/07/16/57ff53f597dbcf1f6.md.png[/img][/url]
[/center]
]]>
The.Affair.S04E05.REPACK.WEB.H264-DEFLATE[TGx] http://glodls.to/torrent.php?id=3528011 http://glodls.to/torrent.php?id=3528011 Mon, 16 Jul 2018 11:22:30 +0100 TV [b]The.Affair.S04E05.REPACK.WEB.H264-DEFLATE[TGx][/b]

Upload provided by TorrentGalaxy
Visit us @ [url]https://torrentgalaxy.org[/url]

[b]MEDIAINFO[/b]
Container = Matroska (mkv)
Duration = 00:58:18.368
Filesize = 264 MiB
ViDEO
Codec info = AVC Main@L3 | V_MPEG4/ISO/AVC
Resolution = 720x480
Display AR = 1.778 | 16:9
Bitrate =
Framerate = CFR 23.976
Color space = YUV
Chroma subsampling = 4:2:0
Encoder =
AUDiO
Codec info = AAC LC | A_AAC
Channels = 2
Bitrate =
Samplerate = 48.0 kHz
Language = English

[b]SCREENSHOTS[/b]
(Click to enlarge)
[url=https://imgmak.com/image/DJK][img]https://imgmak.com/images/2018/07/16/HappyRoboto12967.th.jpg[/img][/url] [url=https://imgmak.com/image/DJT][img]https://imgmak.com/images/2018/07/16/HappyRoboto27529.th.jpg[/img][/url] [url=https://imgmak.com/image/DJa][img]https://imgmak.com/images/2018/07/16/HappyRoboto7913.th.jpg[/img][/url] [url=https://imgmak.com/image/DJp][img]https://imgmak.com/images/2018/07/16/HappyRoboto31945.th.jpg[/img][/url] [url=https://imgmak.com/image/DJR][img]https://imgmak.com/images/2018/07/16/HappyRoboto11267.th.jpg[/img][/url] [url=https://imgmak.com/image/DJb][img]https://imgmak.com/images/2018/07/16/HappyRoboto29029.th.jpg[/img][/url]
[/center] ]]>
Rebecca Sharon - Balls Deep DAP Rebecca Sharon gets it Deep and Hard, with Gapes Double Anal Crempie and one extra facial GIO713 http://glodls.to/torrent.php?id=3528010 http://glodls.to/torrent.php?id=3528010 Mon, 16 Jul 2018 11:22:26 +0100 Adult XXX
[b]Genre[/b]: airtight, anal, ass licking, ass to mouth, atogm, brunette, deep throat, double anal (DAP), facial cumshot, gapes (gaping asshole), rough
[b]Name[/b]: Balls Deep DAP Rebecca Sharon gets it Deep and Hard, with Gapes Double Anal Crempie and one extra facial GIO713


[b]Video[/b]: AVC, 848x480, 29.970 FPS, 2500 kb/s
[b]Audio[/b]: AAC LC, 44.1 kHz, 2 channels, 162 kb/s
[b]Format[/b]: mp4
[b]Duration[/b]: 00:47:05
]]>
[PervMom]Silvia Saige - My Stepmom The Cock Crazed Slut http://glodls.to/torrent.php?id=3528008 http://glodls.to/torrent.php?id=3528008 Mon, 16 Jul 2018 11:21:18 +0100 Adult XXX [center][URL=http://hdmoza.com//img-5b4c7ec3cafaf.html][IMG]http://hdmoza.com//upload/small/2018/07/16/5b4c7ec3caf78.jpeg[/IMG][/URL]
[size=4]

Silvia Saige - My Stepmom The Cock Crazed Slut
Category: All Sex
File size:237.61 MB
Duration: 00:11:42

[b]SCREENS:[/b]

[url]http://hdmoza.com//img-5b4c7ed25baf9.html[/url]
[url]https://www.iceimg.net/site/v/6823775#2405&6823775[/url]


[b]SHOOT:[/b]
[url]http://imageteam.org/img-5b4c7eea7f6cc.html[/url]
[/size]
[/center]
]]>
Luna Rival, Sophia Laure - Two french bitches Luna Rival, Sophia Laure love sex, fisting game Part 1 IV191 http://glodls.to/torrent.php?id=3528007 http://glodls.to/torrent.php?id=3528007 Mon, 16 Jul 2018 11:20:24 +0100 Adult XXX
[b]Name[/b]: Two french bitches Luna Rival & Sophia Laure love sex & fisting game Part 1 IV191


[b]Video[/b]: AVC, 848x480, 29.970 FPS, 2500 kb/s
[b]Audio[/b]: AAC LC, 44.1 kHz, 2 channels, 162 kb/s
[b]Format[/b]: mp4
[b]Duration[/b]: 00:43:37
]]>
Occult.Angel.2018.HDRip.XviD.AC3-EVO http://glodls.to/torrent.php?id=3528005 http://glodls.to/torrent.php?id=3528005 Mon, 16 Jul 2018 11:14:11 +0100 Movies [color=red][b]
Occult.Angel.2018.HDRip.XviD.AC3-EVO

[/b][/color]


IMDb: http://www.imdb.com/title/tt8615816/





[url=https://boltimg.com/image/t52z][img]https://boltimg.com/images/t52z.png[/img][/url]



[color=green][b]
General

(Duration): 1 h 6 min
(FileSize): 1.37 GiB



Audio

(Format): AC-3 - Audio Coding 3
(Codec): AC3



Video

(Format): AVC - Advanced Video Codec
(Media): video/H264
(Format):
(Resolution): 720x400 px
(AspectRatio): 16:9
(FrameRate): 25.000 FPS




[/b][/color]


[url=https://boltimg.com/image/tzTE][img]https://boltimg.com/images/tzTE.png[/img][/url]



[color=purple][b](Click to enlarge)[/b][/color]

[url=https://boltimg.com/image/9k5Pp][img]https://boltimg.com/images/9k5Pp.th.jpg[/img][/url] [url=https://boltimg.com/image/9kDiC][img]https://boltimg.com/images/9kDiC.th.jpg[/img][/url] [url=https://boltimg.com/image/9kO9G][img]https://boltimg.com/images/9kO9G.th.jpg[/img][/url] [url=https://boltimg.com/image/9kkbF][img]https://boltimg.com/images/9kkbF.th.jpg[/img][/url] [url=https://boltimg.com/image/9kqRb][img]https://boltimg.com/images/9kqRb.th.jpg[/img][/url] [url=https://boltimg.com/image/9kNjN][img]https://boltimg.com/images/9kNjN.th.jpg[/img][/url]

[/center]
]]>
Kareshi.To.Kanojo.No.Manko.Ate.Quiz.XXX.1080p.WEBRip.MP4-VSEX[N1C] http://glodls.to/torrent.php?id=3528000 http://glodls.to/torrent.php?id=3528000 Mon, 16 Jul 2018 11:10:29 +0100 Adult XXX Kareshi.To.Kanojo.No.Manko.Ate.Quiz.XXX.1080p.WEBRip.MP4-VSEX


[Format]: MPEG-4
[Duration]: 59mn 22s
[Resolution]: 1 920 x 1 080 pixels
[Display aspect ratio]: 16:9
[Frame rate mode]: Constant
[Frame rate]: 30.000 fps


[color=green][b]#N1C -> To avoid fakes, ALWAYS check that the torrent was added by NO1CARES[/b][/color]






[b]Screens...[/b]
[url]http://HotImage.uk/img-5b4c7cbee632f.html[/url]
[url]http://HotImage.uk/img-5b4c7cbf05590.html[/url]
[url]http://HotImage.uk/img-5b4c7cbf13bd8.html[/url]
[url]http://HotImage.uk/img-5b4c7cbf1fab5.html[/url] ]]>
Silvia Saige - My Stepmom The Cock Crazed Slut http://glodls.to/torrent.php?id=3527999 http://glodls.to/torrent.php?id=3527999 Mon, 16 Jul 2018 11:10:10 +0100 Adult XXX
[b]Date[/b]: 2018
[b]Cast[/b]: Silvia Saige
[b]Genre[/b]: All Sex
[b]Name[/b]: My Stepmom The Cock Crazed Slut


[b]Video[/b]: 960x540, 29.970 FPS, 2700 kb/s
[b]Audio[/b]: 48.0 kHz, 2 channels, 132 kb/s
[b]Format[/b]: mp4
[b]Duration[/b]: 00:11:42
]]>
Tara Ashley - The Sweet Taste Of Cougar Pussy http://glodls.to/torrent.php?id=3527998 http://glodls.to/torrent.php?id=3527998 Mon, 16 Jul 2018 11:08:34 +0100 Adult XXX
[b]Date[/b]: 2018
[b]Cast[/b]: Tara Ashley
[b]Genre[/b]: All Sex
[b]Name[/b]: The Sweet Taste Of Cougar Pussy


[b]Video[/b]: 960x540, 29.970 FPS, 2700 kb/s
[b]Audio[/b]: 48.0 kHz, 2 channels, 132 kb/s
[b]Format[/b]: mp4
[b]Duration[/b]: 00:12:31
]]>
Tara Ashley - Sacrifice The Virgin http://glodls.to/torrent.php?id=3527997 http://glodls.to/torrent.php?id=3527997 Mon, 16 Jul 2018 11:08:23 +0100 Adult XXX
[b]Date[/b]: 2018
[b]Cast[/b]: Tara Ashley
[b]Genre[/b]: All Sex
[b]Name[/b]: Sacrifice The Virgin


[b]Video[/b]: 960x540, 29.970 FPS, 2700 kb/s
[b]Audio[/b]: 48.0 kHz, 2 channels, 132 kb/s
[b]Format[/b]: mp4
[b]Duration[/b]: 00:32:28
]]>
Return.of.the.Scarecrow.2018.HDRip.XviD.AC3-EVO http://glodls.to/torrent.php?id=3527995 http://glodls.to/torrent.php?id=3527995 Mon, 16 Jul 2018 11:04:48 +0100 Movies [color=red][b]
Return.of.the.Scarecrow.2018.HDRip.XviD.AC3-EVO

[/b][/color]


IMDb: http://www.imdb.com/title/tt7370570/





[url=https://boltimg.com/image/t52z][img]https://boltimg.com/images/t52z.png[/img][/url]



[color=green][b]
General

(Duration): 1 h 14 min
(FileSize): 1.18 GiB



Audio

(Format): AC-3 - Audio Coding 3
(Codec): AC3



Video

(Format): MPEG-4 Visual -
(Media): video/MP4V-ES
(Format):
(Resolution): 720x304 px
(AspectRatio): 2.35:1
(FrameRate): 23.976 (24000/1001) FPS




[/b][/color]


[url=https://boltimg.com/image/tzTE][img]https://boltimg.com/images/tzTE.png[/img][/url]



[color=purple][b](Click to enlarge)[/b][/color]

[url=https://boltimg.com/image/9kp75][img]https://boltimg.com/images/9kp75.th.jpg[/img][/url] [url=https://boltimg.com/image/9kJjW][img]https://boltimg.com/images/9kJjW.th.jpg[/img][/url] [url=https://boltimg.com/image/9k8Ix][img]https://boltimg.com/images/9k8Ix.th.jpg[/img][/url] [url=https://boltimg.com/image/9kXWX][img]https://boltimg.com/images/9kXWX.th.jpg[/img][/url] [url=https://boltimg.com/image/9kttw][img]https://boltimg.com/images/9kttw.th.jpg[/img][/url] [url=https://boltimg.com/image/9k0ZL][img]https://boltimg.com/images/9k0ZL.th.jpg[/img][/url]

[/center]
]]>
MasterChef.Australia.S10E51.HDTV.x264-SPC[TGx] http://glodls.to/torrent.php?id=3527994 http://glodls.to/torrent.php?id=3527994 Mon, 16 Jul 2018 11:04:16 +0100 TV [b]MasterChef.Australia.S10E51.HDTV.x264-SPC[TGx][/b]

Upload provided by TorrentGalaxy
Visit us @ [url]https://torrentgalaxy.org[/url]

[b]MEDIAINFO[/b]
Container = Matroska (mkv)
Duration = 00:48:33.871
Filesize = 323 MiB
ViDEO
Codec info = AVC High@L4.1 | V_MPEG4/ISO/AVC
Resolution = 720x404
Display AR = 1.782 | 16:9
Bitrate = 799 kb/s
Framerate = CFR 25.000
Color space = YUV
Chroma subsampling = 4:2:0
Encoder = x264 - core 155 r2901 7d0ff22
AUDiO
Codec info = AAC LC | A_AAC
Channels = 2
Bitrate = 128 kb/s
Samplerate = 44.1 kHz
Language = English

[b]SCREENSHOTS[/b]
(Click to enlarge)
[url=https://imgmak.com/image/Dws][img]https://imgmak.com/images/2018/07/16/HappyRoboto22319.th.jpg[/img][/url] [url=https://imgmak.com/image/Dw4][img]https://imgmak.com/images/2018/07/16/HappyRoboto7464.th.jpg[/img][/url] [url=https://imgmak.com/image/Dw8][img]https://imgmak.com/images/2018/07/16/HappyRoboto12702.th.jpg[/img][/url] [url=https://imgmak.com/image/DwL][img]https://imgmak.com/images/2018/07/16/HappyRoboto28145oAU6W.th.jpg[/img][/url] [url=https://imgmak.com/image/DwX][img]https://imgmak.com/images/2018/07/16/HappyRoboto8804.th.jpg[/img][/url] [url=https://imgmak.com/image/DJC][img]https://imgmak.com/images/2018/07/16/HappyRoboto26524.th.jpg[/img][/url]
[/center] ]]>
Erine - 24 mp4 http://glodls.to/torrent.php?id=3527993 http://glodls.to/torrent.php?id=3527993 Mon, 16 Jul 2018 11:02:13 +0100 Adult XXX [center][URL=http://hdmoza.com//img-5b4c7a53083b4.html][IMG]http://hdmoza.com//upload/small/2018/07/16/5b4c7a5308391.jpeg[/IMG][/URL]
[size=4]

Erine - 24 Years Old
Category: Amateurs, All sex
File size: 625 MB
Duration: 00:41:24

[b]SCREENS:[/b]

[url]http://hdmoza.com//img-5b4c7a6322700.html[/url]
[url]https://www.iceimg.net/site/v/6823600#2405&6823600[/url]


[b]SHOOT:[/b]
[url]http://imageteam.org/img-5b4c7a912fc94.html[/url]
[/size]
[/center] ]]>
MasterChef.Australia.S10E51.HDTV.x264-SPC[ettv] http://glodls.to/torrent.php?id=3527991 http://glodls.to/torrent.php?id=3527991 Mon, 16 Jul 2018 11:01:49 +0100 TV Et TV Shows


[url]https://ettv.online/[/url]

MasterChef.Australia.S10E51.HDTV.x264-SPC


[Format]: Matroska
[Duration]: 48mn 33s
[Resolution]: 720 x 404 pixels
[Display aspect ratio]: 16:9
[Frame rate mode]: Constant
[Frame rate]: 25.000 fps


[color=green][b]#ettv -> To avoid fakes, ALWAYS check that the torrent was added by ettv[/b][/color]




[color=green][b]To keep us going Support us by donating Bitcoin: 3PaWcF82GoygLH9z4d7AocH6zcF6m15Wdv[/b][/color]

[b]Screens...[/b]

[url]https://extraimage.net/image/sJ8H[/url]
[url][/url]
[url][/url]
[url][/url]
[url][/url]
[url][/url]
]]>